Quick Browse
Movies
TV shows
Music
Games
Applications
Anime
Other

Latest Articles

Friends
Torrents.me
Torrent Download
Movie4u
1337x
RARBG
Full Movies
Torrent Downloads

Verified torrent Pacific Rim 2 Uprising 2018 720p WEB-DL AAC 2.0 x264 ESub [MW]


    Seeders : 0      Leechers : 0

Hash :289EDF52FB08BBB3A58C3D171EBEB9068872C03A
Added :3 days ago by MovieFreakVerified torrent uploader in Movies
Size :1.14 GB
Stream :Watch Online Full Movie @ Movie4u
Share :









Note :

Please Update (Trackers Info) Before Downloading Torrents to See Updated Seeders And Leechers for Batter Download Speed.

Trackers List

Tracker NameLast CheckStatusSeedersLeechers




Torrent File Content (1 file)


Pacific Rim 2 Uprising 2018 720p WEB-DL AAC 2.0 x264 ESub [MW]
     Pacific Rim 2 Uprising 2018 720p WEB-DL AAC 2.0 x264 ESub [MW].mkv -
1.14 GB



Description




[url=http://pichub.site/image/MivI0]
http://pichub.site/images/2018/05/17/MV5BMjI3Nzg0MTM5NF5BMl5BanBnXkFtZTgwOTE2MTgwNTM._V1_QL50_.md.jpg
[/url]


General
Format : Matroska
Format version : Version 4 / Version 2
File size : 1.14 GiB
Duration : 1 h 50 min
Overall bit rate : 1 470 kb/s

Video
ID : 1
Format : AVC
Format/Info : Advanced Video Codec
Format profile : [email protected]
Format settings : CABAC / 5 Ref Frames
Format settings, CABAC : Yes
Format settings, RefFrames : 5 frames
Codec ID : V_MPEG4/ISO/AVC
Duration : 1 h 50 min
Bit rate : 1 400 kb/s
Width : 1 280 pixels
Height : 532 pixels
Display aspect ratio : 2.40:1
Frame rate mode : Constant
Frame rate : 23.976 (24000/1001) FPS
Color space : YUV
Chroma subsampling : 4:2:0
Bit depth : 8 bits
Scan type : Progressive
Bits/(Pixel*Frame) : 0.086
Stream size : 1.06 GiB (93%)
Writing library : x264 core 155 r2893 b00bcaf
Default : Yes
Forced : No

Audio
ID : 3
Format : AAC
Format/Info : Advanced Audio Codec
Format profile : HE-AAC / LC
Format settings : Explicit
Codec ID : A_AAC-2
Duration : 1 h 50 min
Bit rate : 96.0 kb/s
Channel(s) : 2 channels
Channel positions : Front: L R
Sampling rate : 48.0 kHz / 24.0 kHz
Frame rate : 23.438 FPS (1024 SPF)
Compression mode : Lossy
Stream size : 75.0 MiB (6%)
Language : English
Default : Yes
Forced : No

Text
ID : 2
Format : UTF-8
Codec ID : S_TEXT/UTF8
Codec ID/Info : UTF-8 Plain Text
Duration : 1 h 40 min
Bit rate : 57 b/s
Count of elements : 1127
Stream size : 42.3 KiB (0%)
Language : English
Default : Yes
Forced : No






[url=http://pichub.site/image/MiN3b]
http://pichub.site/images/2018/05/17/00_08_41.md.jpg
[/url]
[url=http://pichub.site/image/MixAV]
http://pichub.site/images/2018/05/17/00_15_51.md.jpg
[/url]
[url=http://pichub.site/image/Mi0lT]
http://pichub.site/images/2018/05/17/00_23_48.md.jpg
[/url]
[url=http://pichub.site/image/Mir4N]
http://pichub.site/images/2018/05/17/00_28_50.md.jpg
[/url]
[url=http://pichub.site/image/MioCD]
http://pichub.site/images/2018/05/17/00_34_42.md.jpg
[/url]
[url=http://pichub.site/image/MipLZ]
http://pichub.site/images/2018/05/17/01_03_51.md.jpg
[/url]
[url=http://pichub.site/image/Mi2Qg]
http://pichub.site/images/2018/05/17/01_30_57.md.jpg
[/url]


Related torrents

Torrent NameAddedSizeSeedLeechHealth
Verified torrent
Last Month - in Movies1.03 GB00
Verified torrent
3 days ago - in Movies1.24 GB312
Verified torrent
Last Month - in Movies1.63 GB00
Last Month - in Movies1 GB00
Verified torrent
Last Month - in Movies1.13 GB4919

Note :

Feel free to post any comments about this torrent, including links to Subtitle, samples, screenshots, or any other relevant information. Please Dont Download anything from Comments, And Dont Post Links to Streaming Sites like Fmovies, Xmovies8, 123Movies, GoMovies, CMovieshd, Solarmovie, Watchfree, Putlockers, GoStream, m4ufree etc.

Comments (0 Comments)




Please login or create a FREE account to post comments

Latest Searches

| chloe noonan | caribbean 682 | dance and rock | anal Ass 720p | total bellas s03e01 | the time machine Klaus Badelt | dyken elite | yts am swinging | atlas avro | costello show |