Quick Browse
Movies
TV shows
Music
Games
Applications
Anime
Other

Latest Articles

Friends
Torrents.me
Torrent Download
Movie4u
1337x
RARBG
Full Movies
Torrent Downloads

Rifftrax Commentary Tracks - 121 - Road House (1989) (Three-Riffer Edition) (1989)


    Seeders : 10      Leechers : 7


Note :

Please Update (Trackers Info) Before Downloading Torrents to See Updated Seeders And Leechers for Batter Download Speed.

Trackers List

Tracker NameLast CheckStatusSeedersLeechers
udp://eddie4.nl:6969/announceYesterdaysuccess107
udp://tracker.leechers-paradise.org:6969/announceYesterdaysuccess107
udp://tracker.pirateparty.gr:6969/announceYesterdaysuccess75
udp://tracker.coppersurfer.tk:6969/announceYesterdaysuccess75
udp://tracker.opentrackr.org:1337/announceYesterdaysuccess30
udp://public.popcorn-tracker.org:6969/announceYesterdaysuccess10
udp://9.rarbg.me:2710/announceYesterdaysuccess10
udp://9.rarbg.to:2710/announceYesterdaysuccess10
udp://asnet.pw:2710/announceYesterdaysuccess00
udp://ipv4.tracker.harry.lu:80/announceYesterdaysuccess00
udp://tracker.vanitycore.co:6969/announceYesterdaysuccess00
udp://tracker.zer0day.to:1337/announceYesterdaysuccess00
http://tracker.opentrackr.org/announceYesterdaysuccess00
udp://tracker.mgtracker.org:2710/announceYesterdaysuccess00
udp://mgtracker.org:6969/announceYesterdaysuccess00
udp://tracker.sktorrent.net:6969/announceYesterdaysuccess00
udp://tracker.x4w.co:6969/announceYesterdaysuccess00
udp://tracker.internetwarriors.net:1337/announceYesterdaysuccess00
udp://tracker.mg64.net:6881/announceYesterdaysuccess00
udp://p4p.arenabg.ch:1337/announceYesterdaysuccess00
udp://tracker.blackunicorn.xyz:6969/announceYesterdaysuccess00
udp://tracker4.piratux.com:6969/announceYesterdaysuccess00
udp://glotorrents.pw:6969/announceYesterdaysuccess00
udp://tracker.trackerfix.com:80/announceYesterdaysuccess00
udp://tracker.pomf.se:80/announceYesterdaysuccess00
http://tracker2.wasabii.com.tw:6969/announceYesterdaysuccess00
udp://explodie.org:6969/announceYesterdaysuccess00
udp://castradio.net:6969/announceYesterdaysuccess00
http://announce.torrentsmd.com:6969/announceYesterdaysuccess00
http://bigfoot1942.sektori.org:6969/announceYesterdaysuccess00
http://tracker.trackerfix.com/announceYesterdaysuccess00




Torrent File Content (1 file)


     Rifftrax Commentary Tracks - 121 - Road House (1989) (Three-Riffer Edition) (1989).mkv -
3.86 GB



Description



Movies : Comedy : HD 1080p / 1080i : English
Video
Resolution: [email protected] FPS
Source: BluRay Remux

Audio:
Tracks: 2 (Rifftrax + Original Audio)
Format: Dolby Digital Plus
Bitrate: 256 kBit/s


If you don't know what "Rifftrax" is:
http://www.rifftrax.com/about
http://www.youtube.com/user/RiffTrax

Forum: http://pirates-forum.org/Forum-RiffTrax
If you enjoyed this, throw some money at the creators:
http://www.rifftrax.com/donate


Quote:Format : Matroska
Format version : Version 4 / Version 2
File size : 3.86 GiB
Duration : 1 h 57 min
Overall bit rate mode : Variable
Overall bit rate : 4 713 kb/s
Movie name : Rifftrax Commentary Tracks - 121 - Road House (1989) (Three-Riffer Edition) (1989)
Encoded date : UTC 2018-05-14 14:49:38
Writing application : mkvmerge v23.0.0 ('The Bride Said No') 64-bit
Writing library : libebml v1.3.6 + libmatroska v1.4.9

Video
ID : 1
Format : AVC
Format/Info : Advanced Video Codec
Format profile : [email protected]
Format settings : CABAC / 3 Ref Frames
Format settings, CABAC : Yes
Format settings, RefFrames : 3 frames
Codec ID : V_MPEG4/ISO/AVC
Duration : 1 h 57 min
Bit rate mode : Variable
Bit rate : 4 200 kb/s
Maximum bit rate : 40.0 Mb/s
Width : 1 920 pixels
Height : 1 080 pixels
Display aspect ratio : 16:9
Frame rate mode : Constant
Frame rate : 23.976 FPS
Color space : YUV
Chroma subsampling : 4:2:0
Bit depth : 8 bits
Scan type : Progressive
Bits/(Pixel*Frame) : 0.084
Stream size : 3.44 GiB (89%)
Writing library : x264 core 155 r2901M 7d0ff22
Encoding settings : cabac=1 / ref=4 / deblock=1:0:0 / analyse=0x3:0x133 / me=tesa / subme=11 / psy=1 / psy_rd=1.00:0.00 / mixed_ref=1 / me_range=24 / chroma_me=1 / trellis=2 / 8x8dct=1 / cqm=0 / deadzone=21,11 / fast_pskip=0 / chroma_qp_offset=-2 / threads=1 / lookahead_threads=1 / sliced_threads=0 / slices=4 / nr=0 / decimate=1 / interlaced=0 / bluray_compat=1 / constrained_intra=0 / bframes=3 / b_pyramid=1 / b_adapt=2 / b_bias=0 / direct=3 / weightb=1 / open_gop=1 / weightp=1 / keyint=25 / keyint_min=1 / scenecut=40 / intra_refresh=0 / rc_lookahead=25 / rc=2pass / mbtree=1 / bitrate=4200 / ratetol=1.0 / qcomp=0.60 / qpmin=0 / qpmax=69 / qpstep=4 / cplxblur=20.0 / qblur=0.5 / vbv_maxrate=40000 / vbv_bufsize=30000 / nal_hrd=vbr / filler=0 / ip_ratio=1.40 / aq=1:1.00
Language : English
Default : Yes
Forced : No

Audio #1
ID : 2
Format : E-AC-3
Format/Info : Enhanced Audio Coding 3
Codec ID : A_EAC3
Duration : 1 h 57 min
Bit rate mode : Constant
Bit rate : 256 kb/s
Channel(s) : 2 channels
Channel positions : Front: L R
Sampling rate : 48.0 kHz
Frame rate : 187.500 FPS (256 SPF)
Compression mode : Lossy
Stream size : 214 MiB (5%)
Title : Rifftrax
Language : English
Service kind : Complete Main
Default : Yes
Forced : No

Audio #2
ID : 3
Format : E-AC-3
Format/Info : Enhanced Audio Coding 3
Codec ID : A_EAC3
Duration : 1 h 57 min
Bit rate mode : Constant
Bit rate : 256 kb/s
Channel(s) : 2 channels
Channel positions : Front: L R
Sampling rate : 48.0 kHz
Frame rate : 187.500 FPS (256 SPF)
Compression mode : Lossy
Stream size : 214 MiB (5%)
Title : Original Audio
Language : English
Service kind : Complete Main
Default : No
Forced : No

Menu
00:00:00.000 : en:Intro
00:03:04.552 : en:Main Movie


Related torrents

Torrent NameAddedSizeSeedLeechHealth
25 days ago - in Movies6.5 GB00
25 days ago - in Movies3.46 GB00
25 days ago - in Movies2.98 GB00
25 days ago - in Movies2.86 GB00
30 days ago - in Movies2.49 GB00
30 days ago - in Movies3.06 GB00

Note :

Feel free to post any comments about this torrent, including links to Subtitle, samples, screenshots, or any other relevant information. Please Dont Download anything from Comments, And Dont Post Links to Streaming Sites like Fmovies, Xmovies8, 123Movies, GoMovies, CMovieshd, Solarmovie, Watchfree, Putlockers, GoStream, m4ufree etc.

Comments (0 Comments)




Please login or create a FREE account to post comments

Latest Searches

| dagon cases | arri faun | Vertical67 | assshole | grass valley 7 | four royal weddings | chi chiava | The Snowtown Murders 2011 bluray | hdrip avi ita | screwbox violet star |